osu file format v14

[General]
AudioFilename: Ende.ogg
AudioLeadIn: 1500
PreviewTime: 104365
Countdown: 0
SampleSet: Soft
StackLeniency: 0.7
Mode: 3
LetterboxInBreaks: 0
WidescreenStoryboard: 0

[Editor]
Bookmarks: 1176,5976,15576,25176,34776,41976,44376,53976,57576,58776,63576,68376,77976,83976,85176,94776,104376,113976,121176,122376,123576,129276
DistanceSpacing: 1
BeatDivisor: 4
GridSize: 4
TimelineZoom: 1

[Metadata]
Title:Ende
TitleUnicode:Ende
Artist:bj.HaLo
ArtistUnicode:bj.HaLo
Creator:Loctav
Version:HD
Source:BMS
Tags:Trance Core BOF 2010 mania
BeatmapID:267373
BeatmapSetID:79132

[Difficulty]
HPDrainRate:7
CircleSize:7
OverallDifficulty:7
ApproachRate:5
SliderMultiplier:1.4
SliderTickRate:1

[Events]
//Background and Video events
0,0,"bg.jpg",0,0
//Break Periods
//Storyboard Layer 0 (Background)
//Storyboard Layer 1 (Fail)
//Storyboard Layer 2 (Pass)
//Storyboard Layer 3 (Foreground)
//Storyboard Sound Samples
//Background Colour Transformations
3,100,163,162,255

[TimingPoints]
1176,300,4,2,1,60,1,0
34776,-100,4,2,1,60,0,1
53976,-100,4,2,1,60,0,0
85176,-100,4,2,1,60,0,1
94776,-100,4,2,1,60,0,0
104376,-100,4,2,1,60,0,1
123576,-100,4,2,1,60,0,0

[HitObjects]
109,192,1176,1,2,0:0:0:0:
36,192,1326,1,0,0:0:0:0:
256,192,1476,1,2,0:0:0:0:
182,192,1626,1,0,0:0:0:0:
402,192,1776,1,2,0:0:0:0:
329,192,1926,1,0,0:0:0:0:
402,192,2076,1,2,0:0:0:0:
475,192,2226,1,2,0:0:0:0:
329,192,2376,1,2,0:0:0:0:
256,192,2526,1,0,0:0:0:0:
109,192,2676,1,2,0:0:0:0:
36,192,2826,1,0,0:0:0:0:
182,192,2976,1,2,0:0:0:0:
109,192,3126,1,0,0:0:0:0:
329,192,3276,1,2,0:0:0:0:
402,192,3426,1,2,0:0:0:0:
182,192,3576,1,0,0:0:0:0:
256,192,3726,1,2,0:0:0:0:
109,192,3876,1,0,0:0:0:0:
182,192,4026,1,2,0:0:0:0:
36,192,4176,1,0,0:0:0:0:
109,192,4326,1,2,0:0:0:0:
182,192,4476,1,0,0:0:0:0:
256,192,4626,1,2,0:0:0:0:
402,192,4776,1,2,0:0:0:0:
36,192,4926,1,0,0:0:0:0:
402,192,5076,1,2,0:0:0:0:
36,192,5226,1,0,0:0:0:0:
36,192,5526,1,0,0:0:0:0:
109,192,5676,1,2,0:0:0:0:
182,192,5826,1,2,0:0:0:0:
109,192,5976,1,4,0:0:0:40:
256,192,5976,1,8,3:0:0:40:
256,192,6276,1,10,3:0:0:40:
402,192,6276,1,0,0:0:0:40:
256,192,6576,1,8,3:0:0:40:
256,192,6876,1,10,3:0:0:40:
402,192,6876,1,0,0:0:0:40:
256,192,7176,1,8,3:0:0:40:
256,192,7476,1,10,3:0:0:40:
402,192,7476,1,0,0:0:0:40:
256,192,7776,1,8,3:0:0:40:
256,192,8076,1,8,3:0:0:40:
402,192,8076,1,2,3:0:0:40:
402,192,8226,1,2,3:0:0:40:
109,192,8376,1,4,1:0:0:40:
256,192,8376,1,0,3:0:0:40:
109,192,8676,1,10,3:0:0:40:
402,192,8676,1,0,0:0:0:40:
109,192,8976,1,8,3:0:0:40:
402,192,9276,1,0,0:0:0:40:
109,192,9276,1,10,3:0:0:40:
109,192,9576,1,8,3:0:0:40:
109,192,9876,1,10,3:0:0:40:
402,192,9876,1,0,0:0:0:40:
109,192,10176,1,8,3:0:0:40:
109,192,10326,1,8,3:0:0:40:
182,192,10476,1,2,3:0:0:40:
402,192,10476,1,0,0:0:0:40:
402,192,10626,1,2,3:0:0:40:
475,192,10776,1,8,3:0:0:40:
182,192,10776,1,4,1:0:0:40:
109,192,11076,1,2,3:0:0:40:
475,192,11076,1,8,3:0:0:40:
475,192,11376,1,8,3:0:0:40:
475,192,11676,1,8,3:0:0:40:
109,192,11676,1,2,3:0:0:40:
475,192,11976,1,8,3:0:0:40:
475,192,12276,1,8,3:0:0:40:
109,192,12276,1,2,3:0:0:40:
475,192,12576,1,8,3:0:0:40:
475,192,12876,1,8,3:0:0:40:
109,192,12876,1,2,3:0:0:40:
182,192,13176,1,8,3:0:0:40:
182,192,13476,1,8,3:0:0:40:
402,192,13476,1,2,3:0:0:40:
182,192,13776,1,8,3:0:0:40:
182,192,14076,1,8,3:0:0:40:
402,192,14076,1,2,3:0:0:40:
182,192,14376,1,8,3:0:0:40:
182,192,14676,1,8,3:0:0:40:
402,192,14676,1,2,3:0:0:40:
256,192,14976,1,8,3:0:0:40:
329,192,15126,128,2,15276:0:0:0:0:
329,192,15426,1,2,3:0:0:40:
402,192,15576,1,2,0:0:0:0:
475,192,15726,1,0,0:0:0:0:
329,192,15876,1,2,0:0:0:0:
402,192,16026,1,0,0:0:0:0:
182,192,16176,1,2,0:0:0:0:
256,192,16326,1,0,0:0:0:0:
182,192,16476,1,2,0:0:0:0:
109,192,16626,1,2,0:0:0:0:
256,192,16776,1,2,0:0:0:0:
329,192,16926,1,0,0:0:0:0:
475,192,17076,1,2,0:0:0:0:
402,192,17226,1,0,0:0:0:0:
329,192,17376,1,2,0:0:0:0:
402,192,17526,1,0,0:0:0:0:
256,192,17676,1,2,0:0:0:0:
182,192,17826,1,2,0:0:0:0:
329,192,17976,1,0,0:0:0:0:
256,192,18126,1,2,0:0:0:0:
402,192,18276,1,0,0:0:0:0:
329,192,18426,1,2,0:0:0:0:
402,192,18576,1,0,0:0:0:0:
329,192,18726,1,2,0:0:0:0:
256,192,18876,1,2,0:0:0:0:
182,192,19026,1,0,0:0:0:0:
329,192,19176,1,2,0:0:0:0:
402,192,19326,1,2,0:0:0:0:
256,192,19476,1,0,0:0:0:0:
329,192,19626,1,2,0:0:0:0:
402,192,19926,1,2,0:0:0:0:
329,192,20076,1,0,0:0:0:0:
256,192,20226,1,2,0:0:0:0:
109,192,20376,1,2,0:0:0:0:
36,192,20526,1,0,0:0:0:0:
182,192,20676,1,2,0:0:0:0:
109,192,20826,1,0,0:0:0:0:
256,192,20976,1,2,0:0:0:0:
182,192,21126,1,0,0:0:0:0:
329,192,21276,1,2,0:0:0:0:
256,192,21426,1,2,0:0:0:0:
182,192,21576,1,2,0:0:0:0:
256,192,21726,1,0,0:0:0:0:
109,192,21876,1,2,0:0:0:0:
182,192,22026,1,0,0:0:0:0:
36,192,22176,1,2,0:0:0:0:
109,192,22326,1,0,0:0:0:0:
182,192,22476,1,2,0:0:0:0:
256,192,22626,1,2,0:0:0:0:
329,192,22776,1,0,0:0:0:0:
256,192,22926,1,2,0:0:0:0:
402,192,23076,1,0,0:0:0:0:
329,192,23226,1,2,0:0:0:0:
475,192,23376,1,0,0:0:0:0:
402,192,23526,1,2,0:0:0:0:
329,192,23676,1,0,0:0:0:0:
402,192,23826,1,2,0:0:0:0:
256,192,23976,1,2,0:0:0:0:
329,192,24126,1,2,0:0:0:0:
402,192,24276,1,0,0:0:0:0:
475,192,24426,1,2,0:0:0:0:
475,192,24726,1,2,0:0:0:0:
402,192,24876,1,0,0:0:0:0:
329,192,25026,1,2,0:0:0:0:
402,192,25176,1,2,0:0:0:0:
36,192,25176,1,0,0:0:0:0:
109,192,25176,1,4,1:0:0:0:
475,192,25326,1,0,0:0:0:0:
329,192,25476,1,2,0:0:0:0:
36,192,25476,1,8,0:0:0:0:
402,192,25626,1,0,0:0:0:0:
182,192,25776,1,2,0:0:0:0:
256,192,25926,1,0,0:0:0:0:
182,192,26076,1,2,0:0:0:0:
36,192,26076,1,8,0:0:0:0:
109,192,26226,1,2,0:0:0:0:
256,192,26376,1,2,0:0:0:0:
329,192,26526,1,0,0:0:0:0:
475,192,26676,1,2,0:0:0:0:
36,192,26676,1,8,0:0:0:0:
402,192,26826,1,0,0:0:0:0:
329,192,26976,1,2,0:0:0:0:
402,192,27126,1,0,0:0:0:0:
256,192,27276,1,0,0:0:0:0:
36,192,27276,1,8,0:0:0:0:
182,192,27426,1,2,0:0:0:0:
329,192,27576,1,0,0:0:0:0:
256,192,27726,1,2,0:0:0:0:
402,192,27876,1,0,0:0:0:0:
36,192,27876,1,8,0:0:0:0:
329,192,28026,1,2,0:0:0:0:
402,192,28176,1,0,0:0:0:0:
329,192,28326,1,2,0:0:0:0:
256,192,28476,1,2,0:0:0:0:
36,192,28476,1,8,0:0:0:0:
182,192,28626,1,0,0:0:0:0:
329,192,28776,1,2,0:0:0:0:
402,192,28926,1,2,0:0:0:0:
329,192,29076,1,0,0:0:0:0:
36,192,29076,1,8,0:0:0:0:
402,192,29226,1,2,0:0:0:0:
402,192,29526,1,2,0:0:0:0:
329,192,29676,1,0,0:0:0:0:
36,192,29676,1,8,0:0:0:0:
256,192,29826,1,8,0:0:0:0:
402,192,29976,1,4,1:0:0:0:
475,192,29976,1,0,0:0:0:0:
109,192,29976,1,2,0:0:0:0:
36,192,30126,1,0,0:0:0:0:
475,192,30276,1,8,0:0:0:0:
182,192,30276,1,2,0:0:0:0:
109,192,30426,1,0,0:0:0:0:
182,192,30576,1,2,0:0:0:0:
109,192,30726,1,0,0:0:0:0:
475,192,30876,1,8,0:0:0:0:
182,192,30876,1,2,0:0:0:0:
256,192,31026,1,2,0:0:0:0:
182,192,31176,1,2,0:0:0:0:
36,192,31326,1,0,0:0:0:0:
475,192,31476,1,8,0:0:0:0:
182,192,31476,1,2,0:0:0:0:
109,192,31626,1,0,0:0:0:0:
256,192,31776,1,2,0:0:0:0:
182,192,31926,1,0,0:0:0:0:
475,192,32076,1,8,0:0:0:0:
256,192,32076,1,0,0:0:0:0:
329,192,32226,1,2,0:0:0:0:
182,192,32376,1,0,0:0:0:0:
256,192,32526,1,2,0:0:0:0:
475,192,32676,1,8,0:0:0:0:
109,192,32676,1,0,0:0:0:0:
182,192,32826,1,2,0:0:0:0:
109,192,32976,1,0,0:0:0:0:
182,192,33126,1,2,0:0:0:0:
475,192,33276,1,8,0:0:0:0:
256,192,33276,1,2,0:0:0:0:
329,192,33426,1,0,0:0:0:0:
182,192,33576,1,2,0:0:0:0:
109,192,33726,1,2,0:0:0:0:
475,192,33876,1,8,0:0:0:0:
182,192,33876,1,0,0:0:0:0:
109,192,34026,1,2,0:0:0:0:
109,192,34326,1,2,0:0:0:0:
475,192,34476,1,8,0:0:0:0:
182,192,34476,1,0,0:0:0:0:
256,192,34626,1,10,0:0:0:0:
182,192,34776,128,0,35376:0:0:0:0:
329,192,34776,128,0,35376:0:0:0:0:
36,192,35376,1,2,0:0:0:0:
475,192,35376,1,2,0:0:0:0:
109,192,35526,1,0,0:0:0:0:
402,192,35526,1,0,0:0:0:0:
182,192,35676,1,0,0:0:0:0:
329,192,35676,1,0,0:0:0:0:
36,192,35826,1,2,0:0:0:0:
475,192,35826,1,2,0:0:0:0:
256,192,35976,1,0,0:0:0:0:
182,192,36126,1,0,0:0:0:0:
329,192,36126,1,0,0:0:0:0:
109,192,36276,1,2,0:0:0:0:
402,192,36276,1,2,0:0:0:0:
256,192,36426,1,0,0:0:0:0:
182,192,36576,128,2,37176:0:0:0:0:
329,192,36576,128,2,37176:0:0:0:0:
256,192,37176,1,0,0:0:0:0:
182,192,37326,1,0,0:0:0:0:
329,192,37326,1,0,0:0:0:0:
109,192,37476,1,2,0:0:0:0:
402,192,37476,1,2,0:0:0:0:
256,192,37626,1,0,0:0:0:0:
182,192,37776,1,0,0:0:0:0:
329,192,37776,1,0,0:0:0:0:
109,192,37926,1,2,0:0:0:0:
402,192,37926,1,2,0:0:0:0:
256,192,38076,1,0,0:0:0:0:
109,192,38226,1,0,0:0:0:0:
402,192,38226,1,0,0:0:0:0:
36,192,38376,1,2,0:0:0:8:
475,192,38376,1,2,0:0:0:8:
182,192,38376,1,2,0:0:0:0:
329,192,38376,1,2,0:0:0:0:
109,192,38526,1,0,0:0:0:0:
182,192,38676,1,0,0:0:0:0:
256,192,38826,1,0,0:0:0:0:
36,192,38976,1,2,0:0:0:8:
182,192,38976,1,2,0:0:0:0:
329,192,38976,1,2,0:0:0:0:
475,192,38976,1,2,0:0:0:8:
402,192,39126,1,0,0:0:0:0:
329,192,39276,1,0,0:0:0:0:
256,192,39426,1,2,0:0:0:0:
109,192,39576,128,2,39876:0:0:0:0:
402,192,39576,128,0,39876:0:0:0:0:
182,192,39876,1,0,0:0:0:0:
329,192,39876,1,0,0:0:0:0:
256,192,40026,128,2,40176:0:0:0:0:
36,192,40176,1,0,0:0:0:0:
329,192,40326,128,2,40476:0:0:0:0:
109,192,40476,1,0,0:0:0:0:
402,192,40626,1,2,0:0:0:0:
475,192,40776,1,2,0:0:0:0:
256,192,40776,1,2,0:0:0:0:
329,192,40926,1,2,0:0:0:0:
402,192,41076,1,0,0:0:0:0:
256,192,41226,1,2,0:0:0:0:
182,192,41376,1,0,0:0:0:0:
109,192,41526,128,2,41976:0:0:0:0:
402,192,41526,128,2,41976:0:0:0:0:
256,192,41976,1,0,0:0:0:0:
182,192,42126,1,0,0:0:0:0:
329,192,42126,1,0,0:0:0:0:
109,192,42276,1,0,0:0:0:0:
402,192,42276,1,0,0:0:0:0:
36,192,42426,1,2,0:0:0:0:
475,192,42426,1,2,0:0:0:0:
109,192,42576,1,0,0:0:0:0:
182,192,42726,1,0,0:0:0:0:
256,192,42876,1,0,0:0:0:0:
329,192,43026,1,2,0:0:0:0:
109,192,43176,1,0,0:0:0:0:
182,192,43326,1,2,0:0:0:0:
109,192,43476,1,0,0:0:0:0:
182,192,43626,1,2,0:0:0:0:
256,192,43776,1,2,0:0:0:0:
182,192,43926,1,8,0:0:0:40:
182,192,44076,1,8,0:0:0:40:
182,192,44226,1,8,0:0:0:40:
329,192,44376,128,0,44976:0:0:0:0:
182,192,44376,128,0,44976:0:0:0:0:
36,192,44976,1,2,0:0:0:0:
475,192,44976,1,2,0:0:0:0:
402,192,45126,1,0,0:0:0:0:
109,192,45126,1,0,0:0:0:0:
182,192,45276,1,0,0:0:0:0:
329,192,45276,1,0,0:0:0:0:
475,192,45426,1,2,0:0:0:0:
36,192,45426,1,2,0:0:0:0:
256,192,45576,1,0,0:0:0:0:
182,192,45726,1,0,0:0:0:0:
329,192,45726,1,0,0:0:0:0:
402,192,45876,1,2,0:0:0:0:
109,192,45876,1,2,0:0:0:0:
256,192,46026,1,0,0:0:0:0:
329,192,46176,128,0,46776:0:0:0:0:
182,192,46176,128,0,46776:0:0:0:0:
256,192,46776,1,0,0:0:0:0:
182,192,46926,1,0,0:0:0:0:
329,192,46926,1,0,0:0:0:0:
402,192,47076,1,2,0:0:0:0:
109,192,47076,1,2,0:0:0:0:
256,192,47226,1,0,0:0:0:0:
329,192,47376,1,0,0:0:0:0:
182,192,47376,1,0,0:0:0:0:
402,192,47526,1,2,0:0:0:0:
109,192,47526,1,2,0:0:0:0:
256,192,47676,1,0,0:0:0:0:
402,192,47826,1,0,0:0:0:0:
109,192,47826,1,0,0:0:0:0:
329,192,47976,1,2,0:0:0:0:
182,192,47976,1,2,0:0:0:0:
475,192,47976,1,2,0:0:0:8:
36,192,47976,1,2,0:0:0:8:
402,192,48126,1,0,0:0:0:0:
329,192,48276,1,0,0:0:0:0:
256,192,48426,1,0,0:0:0:0:
182,192,48576,1,2,0:0:0:0:
329,192,48576,1,2,0:0:0:0:
36,192,48576,1,2,0:0:0:8:
475,192,48576,1,2,0:0:0:8:
109,192,48726,1,0,0:0:0:0:
182,192,48876,1,0,0:0:0:0:
256,192,49026,1,0,0:0:0:0:
182,192,49176,128,2,49476:0:0:0:0:
329,192,49176,128,2,49476:0:0:0:0:
256,192,49476,1,0,0:0:0:0:
329,192,49626,128,2,49776:0:0:0:0:
36,192,49776,1,0,0:0:0:0:
402,192,49926,128,2,50076:0:0:0:0:
109,192,50076,1,0,0:0:0:0:
475,192,50226,1,2,0:0:0:0:
402,192,50376,1,2,0:0:0:0:
329,192,50526,1,2,0:0:0:0:
256,192,50676,1,0,0:0:0:0:
182,192,50826,1,2,0:0:0:0:
36,192,50976,1,0,0:0:0:0:
475,192,50976,1,0,0:0:0:0:
109,192,51126,1,2,0:0:0:0:
402,192,51126,1,2,0:0:0:0:
182,192,51276,1,0,0:0:0:0:
329,192,51276,1,0,0:0:0:0:
256,192,51426,1,2,0:0:0:0:
36,192,51576,1,0,0:0:0:0:
109,192,51726,1,0,0:0:0:0:
182,192,51876,1,0,0:0:0:0:
256,192,52026,1,2,0:0:0:0:
475,192,52176,1,0,0:0:0:0:
402,192,52326,1,0,0:0:0:0:
329,192,52476,1,0,0:0:0:0:
256,192,52626,1,2,0:0:0:0:
182,192,52776,1,4,0:0:0:50:
329,192,52776,1,0,0:0:0:50:
329,192,52926,1,4,0:0:0:50:
182,192,52926,1,0,0:0:0:50:
109,192,53226,1,0,0:0:0:50:
402,192,53226,1,4,0:0:0:50:
182,192,53526,1,4,0:0:0:50:
329,192,53526,1,0,0:0:0:50:
109,192,53676,1,4,0:0:0:50:
402,192,53676,1,0,0:0:0:50:
182,192,53826,1,4,0:0:0:50:
329,192,53826,1,0,0:0:0:50:
109,192,53976,1,2,0:0:0:0:
36,192,54126,1,0,0:0:0:0:
256,192,54276,1,2,0:0:0:0:
182,192,54426,1,0,0:0:0:0:
402,192,54576,1,2,0:0:0:0:
329,192,54726,1,0,0:0:0:0:
402,192,54876,1,2,0:0:0:0:
475,192,55026,1,2,0:0:0:0:
329,192,55176,1,2,0:0:0:0:
256,192,55326,1,0,0:0:0:0:
109,192,55476,1,2,0:0:0:0:
36,192,55626,1,0,0:0:0:0:
256,192,55776,1,2,0:0:0:0:
182,192,55926,1,0,0:0:0:0:
329,192,56076,1,2,0:0:0:0:
402,192,56226,1,2,0:0:0:0:
182,192,56376,1,0,0:0:0:0:
256,192,56526,1,2,0:0:0:0:
109,192,56676,1,0,0:0:0:0:
182,192,56826,1,2,0:0:0:0:
36,192,56976,1,0,0:0:0:0:
109,192,57126,1,2,0:0:0:0:
329,192,57276,1,0,0:0:0:0:
256,192,57426,1,2,0:0:0:0:
109,192,57576,128,0,58776:0:0:0:0:
402,192,57576,128,0,58776:0:0:0:0:
182,192,58776,1,0,0:0:0:0:
256,192,58926,1,0,0:0:0:0:
329,192,59076,128,2,59376:0:0:0:0:
402,192,59376,1,0,0:0:0:0:
329,192,59676,1,2,0:0:0:0:
182,192,59976,128,0,60276:0:0:0:0:
109,192,60276,1,2,0:0:0:0:
256,192,60576,128,0,60876:0:0:0:0:
182,192,60876,1,2,0:0:0:0:
402,192,61176,128,0,61476:0:0:0:0:
329,192,61476,1,2,0:0:0:0:
329,192,61776,128,0,62076:0:0:0:0:
256,192,62076,1,2,0:0:0:0:
36,192,62376,128,2,62526:0:0:0:0:
109,192,62526,128,2,62676:0:0:0:0:
182,192,62676,128,0,62826:0:0:0:0:
256,192,62826,128,2,62976:0:0:0:0:
109,192,62976,128,2,63126:0:0:0:0:
182,192,63126,128,2,63276:0:0:0:0:
256,192,63276,128,0,63426:0:0:0:0:
329,192,63426,128,2,63576:0:0:0:0:
182,192,63576,1,0,0:0:0:0:
36,192,63576,1,0,0:0:0:0:
256,192,63726,1,0,0:0:0:0:
329,192,63876,128,2,64176:0:0:0:0:
402,192,64176,1,0,0:0:0:0:
36,192,64176,1,0,0:0:0:0:
329,192,64476,1,2,0:0:0:0:
182,192,64776,128,0,65076:0:0:0:0:
36,192,64776,1,0,0:0:0:0:
109,192,65076,1,2,0:0:0:0:
402,192,65376,1,0,0:0:0:0:
256,192,65376,128,0,65676:0:0:0:0:
182,192,65676,1,2,0:0:0:0:
402,192,65976,128,0,66276:0:0:0:0:
36,192,65976,1,0,0:0:0:0:
329,192,66276,1,2,0:0:0:0:
329,192,66576,128,0,66876:0:0:0:0:
182,192,66576,1,0,0:0:0:0:
256,192,66876,1,2,0:0:0:0:
182,192,67176,1,0,0:0:0:50:
329,192,67176,1,4,0:0:0:50:
329,192,67326,1,0,0:0:0:50:
182,192,67326,1,4,0:0:0:50:
402,192,67626,1,0,0:0:0:50:
109,192,67626,1,4,0:0:0:50:
329,192,67926,1,0,0:0:0:50:
182,192,67926,1,4,0:0:0:50:
402,192,68076,1,8,0:0:0:50:
109,192,68076,1,12,0:0:0:50:
329,192,68226,1,0,0:0:0:50:
182,192,68226,1,0,0:0:0:50:
329,192,68376,1,0,0:0:0:0:
475,192,68376,1,0,0:0:0:0:
256,192,68526,1,0,0:0:0:0:
182,192,68676,128,8,68976:0:0:0:0:
36,192,68976,1,0,0:0:0:0:
109,192,69126,1,0,0:0:0:0:
256,192,69276,128,8,69576:0:0:0:0:
329,192,69576,1,0,0:0:0:0:
402,192,69726,1,0,0:0:0:0:
475,192,69876,128,8,70176:0:0:0:0:
402,192,70176,1,0,0:0:0:0:
329,192,70326,1,0,0:0:0:0:
256,192,70476,128,8,70776:0:0:0:0:
402,192,70776,1,0,0:0:0:0:
329,192,70926,1,0,0:0:0:0:
182,192,71076,128,8,71376:0:0:0:0:
402,192,71376,1,0,0:0:0:0:
329,192,71526,1,0,0:0:0:0:
256,192,71676,1,8,0:0:0:0:
475,192,71976,128,2,72126:0:0:0:0:
402,192,72126,128,2,72276:0:0:0:0:
329,192,72276,128,8,72426:0:0:0:0:
256,192,72426,128,2,72576:0:0:0:0:
402,192,72576,128,2,72726:0:0:0:0:
329,192,72726,128,2,72876:0:0:0:0:
256,192,72876,128,8,73026:0:0:0:0:
182,192,73026,128,10,73176:0:0:0:0:
475,192,73176,1,0,0:0:0:0:
329,192,73176,1,0,0:0:0:0:
402,192,73326,1,2,0:0:0:0:
402,192,73476,128,8,73776:0:0:0:0:
36,192,73776,1,0,0:0:0:0:
182,192,73776,1,0,0:0:0:0:
109,192,73926,1,2,0:0:0:0:
109,192,74076,128,8,74376:0:0:0:0:
256,192,74376,1,0,0:0:0:0:
402,192,74376,1,0,0:0:0:0:
329,192,74526,1,2,0:0:0:0:
329,192,74676,128,8,74976:0:0:0:0:
109,192,74976,1,0,0:0:0:0:
256,192,74976,1,0,0:0:0:0:
182,192,75126,1,2,0:0:0:0:
182,192,75276,128,8,75576:0:0:0:0:
36,192,75576,1,0,0:0:0:0:
475,192,75576,1,0,0:0:0:0:
256,192,75726,1,2,0:0:0:0:
256,192,75876,128,8,76176:0:0:0:0:
109,192,76176,1,0,0:0:0:0:
402,192,76176,1,0,0:0:0:0:
256,192,76326,1,2,0:0:0:0:
256,192,76476,128,8,76776:0:0:0:0:
182,192,76776,1,4,0:0:0:50:
329,192,76776,1,0,0:0:0:50:
182,192,76926,1,0,0:0:0:50:
329,192,76926,1,4,0:0:0:50:
402,192,77226,1,4,0:0:0:50:
109,192,77226,1,0,0:0:0:50:
329,192,77526,1,0,0:0:0:50:
182,192,77526,1,4,0:0:0:50:
402,192,77676,1,12,0:0:0:50:
109,192,77676,1,8,0:0:0:50:
182,192,77826,1,0,0:0:0:50:
329,192,77826,1,4,0:0:0:50:
36,192,77976,128,0,83976:0:0:0:0:
256,192,78276,1,8,0:0:0:0:
256,192,78876,1,8,0:0:0:0:
256,192,79476,1,8,0:0:0:0:
256,192,80076,1,8,0:0:0:0:
256,192,80676,1,8,0:0:0:0:
256,192,81276,1,8,0:0:0:0:
256,192,81876,1,8,0:0:0:0:
256,192,82476,1,8,0:0:0:0:
256,192,83076,1,8,0:0:0:0:
256,192,83676,1,8,0:0:0:0:
109,192,83976,5,2,0:0:0:0:
256,192,83976,1,0,0:0:0:0:
182,192,84126,1,2,0:0:0:0:
256,192,84276,1,0,0:0:0:0:
329,192,84426,1,2,0:0:0:0:
182,192,84576,1,2,0:0:0:0:
256,192,84726,1,0,0:0:0:0:
182,192,84876,1,2,0:0:0:0:
402,192,85026,1,0,0:0:0:0:
36,192,85176,1,0,0:0:0:0:
182,192,85176,1,0,0:0:0:0:
256,192,85326,1,2,0:0:0:0:
329,192,85476,128,8,85626:0:0:0:0:
402,192,85626,1,2,0:0:0:0:
475,192,85776,1,0,0:0:0:0:
402,192,85926,1,2,0:0:0:0:
329,192,86076,128,8,86226:0:0:0:0:
256,192,86226,1,2,0:0:0:0:
182,192,86376,1,0,0:0:0:0:
109,192,86526,1,2,0:0:0:0:
36,192,86676,128,8,86826:0:0:0:0:
109,192,86826,1,2,0:0:0:0:
182,192,86976,1,0,0:0:0:0:
256,192,87126,1,2,0:0:0:0:
329,192,87276,128,8,87426:0:0:0:0:
256,192,87426,1,2,0:0:0:0:
36,192,87576,128,0,87726:0:0:0:0:
329,192,87726,1,2,0:0:0:0:
109,192,87876,128,8,88026:0:0:0:0:
402,192,88026,1,2,0:0:0:0:
182,192,88176,128,0,88326:0:0:0:0:
475,192,88326,1,2,0:0:0:0:
109,192,88476,1,8,0:0:0:0:
36,192,88776,128,2,88926:0:0:0:0:
109,192,88926,128,2,89076:0:0:0:0:
182,192,89076,128,8,89226:0:0:0:0:
256,192,89226,128,2,89376:0:0:0:0:
109,192,89376,128,2,89526:0:0:0:0:
182,192,89526,128,2,89676:0:0:0:0:
256,192,89676,128,8,89826:0:0:0:0:
329,192,89826,128,10,89976:0:0:0:0:
182,192,89976,1,0,0:0:0:0:
36,192,89976,1,0,0:0:0:0:
109,192,90126,1,2,0:0:0:0:
109,192,90276,128,8,90426:0:0:0:0:
329,192,90576,1,0,0:0:0:0:
475,192,90576,1,0,0:0:0:0:
109,192,90576,1,2,0:0:0:0:
402,192,90726,1,2,0:0:0:0:
402,192,90876,128,8,91026:0:0:0:0:
256,192,91176,1,0,0:0:0:0:
109,192,91176,1,0,0:0:0:0:
402,192,91176,1,2,0:0:0:0:
182,192,91326,1,2,0:0:0:0:
182,192,91476,128,8,91626:0:0:0:0:
256,192,91776,1,0,0:0:0:0:
402,192,91776,1,0,0:0:0:0:
182,192,91776,1,2,0:0:0:0:
329,192,91926,1,2,0:0:0:0:
329,192,92076,128,8,92226:0:0:0:0:
475,192,92376,1,0,0:0:0:0:
36,192,92376,1,0,0:0:0:0:
329,192,92376,1,0,0:0:0:0:
256,192,92526,1,2,0:0:0:0:
256,192,92676,128,8,92826:0:0:0:0:
402,192,92976,1,0,0:0:0:0:
109,192,92976,1,0,0:0:0:0:
256,192,93126,1,0,0:0:0:0:
256,192,93276,128,8,93426:0:0:0:0:
329,192,93576,1,2,0:0:0:0:
256,192,93726,1,2,0:0:0:0:
182,192,93876,1,8,0:0:0:0:
109,192,94026,1,2,0:0:0:0:
329,192,94176,1,2,0:0:0:0:
256,192,94326,1,0,0:0:0:0:
329,192,94476,1,10,0:0:0:0:
109,192,94626,1,8,0:0:0:0:
475,192,94776,1,0,0:0:0:0:
329,192,94776,1,0,0:0:0:0:
256,192,94926,1,2,0:0:0:0:
182,192,95076,128,8,95226:0:0:0:0:
109,192,95226,1,2,0:0:0:0:
36,192,95376,1,0,0:0:0:0:
109,192,95526,1,2,0:0:0:0:
182,192,95676,128,8,95826:0:0:0:0:
256,192,95826,1,2,0:0:0:0:
329,192,95976,1,0,0:0:0:0:
402,192,96126,1,2,0:0:0:0:
475,192,96276,128,8,96426:0:0:0:0:
402,192,96426,1,2,0:0:0:0:
329,192,96576,1,0,0:0:0:0:
256,192,96726,1,2,0:0:0:0:
182,192,96876,128,8,97026:0:0:0:0:
256,192,97026,1,2,0:0:0:0:
475,192,97176,128,0,97326:0:0:0:0:
182,192,97326,1,2,0:0:0:0:
402,192,97476,128,8,97626:0:0:0:0:
109,192,97626,1,2,0:0:0:0:
329,192,97776,128,0,97926:0:0:0:0:
36,192,97926,1,2,0:0:0:0:
402,192,98076,1,8,0:0:0:0:
475,192,98376,128,2,98526:0:0:0:0:
402,192,98526,128,2,98676:0:0:0:0:
329,192,98676,128,8,98826:0:0:0:0:
256,192,98826,128,2,98976:0:0:0:0:
402,192,98976,128,2,99126:0:0:0:0:
329,192,99126,128,2,99276:0:0:0:0:
256,192,99276,128,8,99426:0:0:0:0:
182,192,99426,128,8,99576:0:0:0:0:
475,192,99576,1,0,0:0:0:0:
329,192,99576,1,0,0:0:0:0:
402,192,99726,1,2,0:0:0:0:
402,192,99876,128,8,100026:0:0:0:0:
182,192,100176,1,0,0:0:0:0:
402,192,100176,1,2,0:0:0:0:
36,192,100176,1,0,0:0:0:0:
109,192,100326,1,2,0:0:0:0:
109,192,100476,128,8,100626:0:0:0:0:
329,192,100776,1,0,0:0:0:0:
475,192,100776,1,0,0:0:0:0:
109,192,100776,1,2,0:0:0:0:
402,192,100926,1,2,0:0:0:0:
402,192,101076,128,8,101226:0:0:0:0:
182,192,101376,1,0,0:0:0:0:
36,192,101376,1,0,0:0:0:0:
402,192,101376,1,2,0:0:0:0:
109,192,101526,1,2,0:0:0:0:
109,192,101676,128,8,101826:0:0:0:0:
329,192,101976,1,0,0:0:0:0:
109,192,101976,1,2,0:0:0:0:
182,192,101976,1,0,0:0:0:0:
256,192,102126,1,2,0:0:0:0:
256,192,102276,128,8,102426:0:0:0:0:
256,192,102576,1,2,0:0:0:0:
402,192,102576,1,0,0:0:0:0:
109,192,102576,1,0,0:0:0:0:
256,192,102726,1,0,0:0:0:0:
256,192,102876,128,8,103026:0:0:0:0:
182,192,103176,1,0,0:0:0:0:
329,192,103176,1,0,0:0:0:0:
329,192,103326,1,0,0:0:0:0:
182,192,103326,1,0,0:0:0:0:
402,192,103626,1,0,0:0:0:0:
109,192,103626,1,0,0:0:0:0:
329,192,103926,1,0,0:0:0:0:
182,192,103926,1,0,0:0:0:0:
109,192,104076,1,8,0:0:0:0:
402,192,104076,1,8,0:0:0:0:
182,192,104226,1,0,0:0:0:0:
329,192,104226,1,0,0:0:0:0:
36,192,104376,1,0,1:0:0:0:
36,192,104526,1,0,1:0:0:0:
109,192,104676,128,2,104826:0:0:0:0:
182,192,104826,1,0,1:0:0:0:
256,192,104976,1,0,1:0:0:0:
256,192,105126,1,0,1:0:0:0:
329,192,105276,128,2,105426:0:0:0:0:
402,192,105426,1,0,1:0:0:0:
475,192,105576,1,0,1:0:0:0:
475,192,105726,1,0,1:0:0:0:
402,192,105876,128,2,106026:0:0:0:0:
329,192,106026,1,0,1:0:0:0:
256,192,106176,1,0,1:0:0:0:
256,192,106326,1,0,1:0:0:0:
182,192,106476,128,2,106626:0:0:0:0:
109,192,106626,1,0,1:0:0:0:
36,192,106776,128,0,107676:0:0:0:0:
109,192,107076,128,2,107676:0:0:0:0:
182,192,107376,128,0,107676:0:0:0:0:
256,192,107676,1,2,1:0:0:0:
329,192,107976,128,0,108126:0:0:0:0:
256,192,108126,128,0,108276:0:0:0:0:
182,192,108276,128,2,108426:0:0:0:0:
109,192,108426,128,0,108576:0:0:0:0:
256,192,108576,128,0,108726:0:0:0:0:
182,192,108726,128,0,108876:0:0:0:0:
109,192,108876,128,2,109026:0:0:0:0:
36,192,109026,128,2,109176:0:0:0:0:
475,192,109176,1,0,1:0:0:0:
475,192,109326,1,0,1:0:0:0:
402,192,109476,128,2,109626:0:0:0:0:
329,192,109626,1,0,1:0:0:0:
256,192,109776,1,0,1:0:0:0:
256,192,109926,1,0,1:0:0:0:
182,192,110076,128,2,110226:0:0:0:0:
109,192,110226,1,0,1:0:0:0:
36,192,110376,1,0,1:0:0:0:
36,192,110526,1,0,1:0:0:0:
109,192,110676,128,2,110826:0:0:0:0:
182,192,110826,1,0,1:0:0:0:
256,192,110976,1,0,1:0:0:0:
256,192,111126,1,0,1:0:0:0:
329,192,111276,128,2,111426:0:0:0:0:
402,192,111426,1,0,1:0:0:0:
475,192,111576,128,0,112476:0:0:0:0:
402,192,111876,128,2,112476:0:0:0:0:
329,192,112176,128,0,112476:0:0:0:0:
256,192,112476,1,2,1:0:0:0:
256,192,112776,128,0,112926:0:0:0:0:
329,192,112926,128,0,113076:0:0:0:0:
402,192,113076,128,2,113226:0:0:0:0:
475,192,113226,128,0,113376:0:0:0:0:
182,192,113376,128,0,113526:0:0:0:0:
256,192,113526,128,0,113676:0:0:0:0:
329,192,113676,128,2,113826:0:0:0:0:
402,192,113826,128,2,113976:0:0:0:0:
36,192,113976,1,0,1:0:0:0:
36,192,114126,1,0,1:0:0:0:
109,192,114276,128,2,114576:0:0:0:0:
182,192,114576,128,0,114876:0:0:0:0:
36,192,114576,1,0,1:0:0:0:
109,192,114876,1,2,1:0:0:0:
109,192,115026,1,0,1:0:0:0:
475,192,115176,128,0,115476:0:0:0:0:
402,192,115476,128,2,115776:0:0:0:0:
475,192,115776,1,0,1:0:0:0:
329,192,115776,128,0,116076:0:0:0:0:
402,192,116076,1,2,1:0:0:0:
402,192,116226,1,0,1:0:0:0:
256,192,116376,128,0,117576:0:0:0:0:
182,192,116676,128,2,117576:0:0:0:0:
329,192,116976,128,0,117576:0:0:0:0:
109,192,117276,128,0,117576:0:0:0:0:
402,192,117576,128,0,117726:0:0:0:0:
329,192,117726,128,0,117876:0:0:0:0:
256,192,117876,128,2,118026:0:0:0:0:
182,192,118026,128,0,118176:0:0:0:0:
329,192,118176,128,0,118326:0:0:0:0:
256,192,118326,128,0,118476:0:0:0:0:
182,192,118476,128,2,118626:0:0:0:0:
109,192,118626,128,2,118776:0:0:0:0:
256,192,118776,1,0,1:0:0:0:
256,192,118926,1,0,1:0:0:0:
329,192,119076,128,2,119376:0:0:0:0:
402,192,119376,128,0,119676:0:0:0:0:
256,192,119376,1,0,1:0:0:0:
475,192,119676,1,2,1:0:0:0:
475,192,119826,1,0,1:0:0:0:
256,192,119976,128,0,120276:0:0:0:0:
182,192,120276,128,2,120576:0:0:0:0:
329,192,120276,1,0,1:0:0:0:
109,192,120576,128,0,120876:0:0:0:0:
36,192,120576,1,0,1:0:0:0:
182,192,120876,1,2,1:0:0:0:
329,192,121176,1,0,1:0:0:0:
182,192,121251,1,0,1:0:0:0:
402,192,121326,1,0,1:0:0:0:
109,192,121401,1,0,1:0:0:0:
475,192,121476,1,2,1:0:0:0:
36,192,121551,1,0,1:0:0:0:
402,192,121626,1,0,1:0:0:0:
109,192,121701,1,0,1:0:0:0:
329,192,121776,1,0,1:0:0:0:
182,192,121851,1,0,1:0:0:0:
402,192,121926,1,0,1:0:0:0:
109,192,122001,1,0,1:0:0:0:
475,192,122076,1,2,1:0:0:0:
36,192,122151,1,0,1:0:0:0:
402,192,122226,1,0,1:0:0:0:
109,192,122301,1,0,1:0:0:0:
329,192,122376,1,0,1:0:0:0:
182,192,122376,1,0,1:0:0:0:
182,192,122526,1,0,1:0:0:0:
329,192,122526,1,0,1:0:0:0:
109,192,122826,1,0,1:0:0:0:
402,192,122826,1,0,1:0:0:0:
109,192,123126,1,0,1:0:0:0:
402,192,123126,1,0,1:0:0:0:
182,192,123276,1,2,1:0:0:0:
329,192,123276,1,0,1:0:0:0:
109,192,123426,1,0,0:0:0:0:
402,192,123426,1,0,0:0:0:0:
182,192,123576,128,0,125976:0:0:0:0:
329,192,123576,128,0,125976:0:0:0:0:
256,192,123576,128,0,125976:0:0:0:0:
